#TITLE:zips;
#SUBTITLE:;
#ARTIST:T.M.Revolution;
#TITLETRANSLIT:;
#SUBTITLETRANSLIT:;
#ARTISTTRANSLIT:;
#CREDIT:;
#BANNER:zips-logo.jpg;
#BACKGROUND:zips.jpg;
#LYRICSPATH:;
#CDTITLE:Lan.png;
#MUSIC:zips.mp3;
#OFFSET:-0.020;
#SAMPLESTART:100.000;
#SAMPLELENGTH:12.000;
#SELECTABLE:YES;
#BPMS:0.000=155.010;
#STOPS:;
#BGCHANGES:;
// cache tags:
#FIRSTBEAT:8.500;
#LASTBEAT:363.000;
#SONGFILENAME:Songs/sdo pack 6/zips/zips.sm;
#HASMUSIC:1;
#HASBANNER:1;
#MUSICLENGTH:145.559;
// end cache tags

//---------------dance-single - sky----------------
#NOTES:
     dance-single:
     sky:
     Hard:
     8:
     0.543,0.978,0.289,0.082,0.096,490.000,42.000,12.000,0.000,9.000:

0000
0000
0000
0000
,
0000
0000
0000
0000
,
0000
0000
0000
0000
,
0000
0000
0000
0000
,
0000
0000
0000
0000
,
0000
0000
0000
0000
,
0000
0000
0000
0000
,
0001
0001
1000
1000
0010
0010
0100
0100
,
0001
0001
0100
0100
1000
1000
0001
0001
,
0100
0100
0001
0001
0100
0010
0100
0001
,
1000
0010
0100
0001
0010
0010
0001
0100
,
1000
0010
0100
0010
1000
0001
0100
1000
,
0001
0010
0100
0010
0100
0001
1000
0100
,
1000
0010
0100
1000
0001
0010
0100
0001
,
1000
0100
0001
0010
0100
1000
0001
0100
,
0010
1000
0010
0100
,
0001
0000
0010
0000
1000
0100
1000
0000
,
0001
1000
0010
0100
,
0101
0000
0010
0100
1000
0100
0000
0000
,
1100
0001
0100
1000
,
0100
0000
0010
0000
1000
0010
0001
0000
,
0100
0101
1000
0010
,
0100
1000
1001
0001
,
0010
0101
1000
0001
,
0100
0011
0010
1100
,
0010
1000
0001
0010
,
1100
0000
0000
0000
0001
0000
0000
0000
2010
0000
0000
0000
0001
0000
0000
3000
,
0100
0010
0001
0100
0010
1000
0100
0000
,
0001
0010
0100
1000
0001
0010
0010
0000
,
1000
0010
0100
0010
1000
0001
0010
0100
,
1000
0000
0001
0000
0201
0000
0000
0000
1000
0000
0000
0300
0000
0000
0000
0000
,
0001
1000
0000
0001
0100
0000
0000
0010
,
0001
0100
0010
0100
0000
1000
0010
0001
,
0100
0010
0000
1000
0001
0000
0000
1000
,
0100
0001
0010
0000
1000
0000
1001
0000
,
0100
0010
0001
0100
0000
0010
1000
0100
,
0010
0100
0001
0010
0010
0001
0000
0000
,
0000
0100
0001
1000
0010
0100
0000
0010
,
0100
1000
0010
0100
0000
1000
0010
0100
,
0001
0010
0000
1000
0010
0000
0000
0001
,
0100
1000
0001
0010
0000
0010
0100
0010
,
0001
1000
0000
0100
0001
0000
0000
0010
,
0100
0010
1000
0000
0010
0000
0001
0000
,
1000
1011
0001
1101
,
1000
1011
0100
0101
,
0000
0100
0001
0010
1000
0100
0000
0001
,
0010
0001
1000
0200
0001
0000
1010
0300
,
0100
1001
0010
1001
,
0001
0110
1000
0110
,
1000
1011
0001
1101
,
0001
0011
1000
1100
,
0010
0011
0100
1100
,
0010
0001
0100
1000
,
1000
1000
0100
0100
0010
0010
0001
0001
,
0001
0001
0010
0010
0100
0100
1000
1000
,
1000
0100
0010
0001
0001
0010
0100
1000
0100
0010
0001
0010
0100
1000
0100
0010
,
0001
0001
0010
0100
1000
0100
0010
0001
0010
0100
1000
0100
0010
0001
0010
0100
,
1000
0100
0010
0001
0010
0100
0010
0001
0010
0100
1000
0100
0010
0100
0000
0000
,
2001
0000
0000
0000
0100
0000
0000
0000
0001
0000
0000
0000
0010
0000
0000
3000
,
0002
0000
0000
0000
0000
0000
1003
0100
0010
0001
0010
0100
1000
0100
0010
0001
,
0000
0000
0001
1000
0200
0000
0000
0300
,
1000
0100
0001
0010
0100
0001
1000
0100
,
0021
0000
0000
0000
0000
0000
0000
0000
0000
0000
0000
0000
0000
0000
0000
0030
,
1000
0010
0000
0100
0101
0000
1000
0000
,
0011
1000
0010
0001
,
0100
0010
0000
0001
1000
0000
0001
0000
,
0100
0010
0001
1000
,
0010
1000
0100
0010
0001
0010
0100
0100
,
1000
0010
0010
0001
0100
0010
0001
0100
,
0001
0010
0100
0100
1000
0010
0010
0000
,
0001
0010
0100
1000
0010
0100
1000
0010
,
1000
0100
0000
0010
0001
0000
0000
0001
,
0100
0010
1000
0100
0000
0010
0001
0100
,
0001
1000
0000
0100
0010
0000
0000
0001
,
0010
0100
0001
0000
1000
0000
0000
0000
,
0001
0010
0100
0001
0010
1000
0001
0100
,
0010
1000
0100
0010
0001
1000
0000
0000
,
0001
0100
0010
0001
1000
0001
0000
0000
,
0010
0000
0100
0000
0010
0000
1002
0000
0000
0000
0000
0000
0000
0000
0000
0003
,
1100
1000
0011
0001
,
0110
0100
0110
0010
,
0100
0111
0010
1110
,
1001
0100
1001
0010
1001
0100
1001
0000
,
0010
1000
0100
0010
0001
0100
1000
0100
,
1000
0010
0001
0100
0100
1000
0010
0010
,
0001
0010
0010
1000
0100
0010
1000
0100
,
1000
0010
0100
0001
0010
0100
0001
0100
,
2222
0000
0000
0000
,
0000
0000
0000
0000
,
3333
0000
0000
0000
;

//---------------dance-single - ----------------
#NOTES:
     dance-single:
     :
     Medium:
     1:
     1.000,1.000,1.000,0.069,1.000,769.000,325.000,10.000,0.000,20.000:  // measure 1
0000
0000
0000
0000
,  // measure 2
0000
0000
0000
0000
,  // measure 3
0000
0000
2000
0000
0000
0000
0000
0000
0000
3000
0000
0000
0000
0000
0000
0000
,  // measure 4
0000
0000
0000
0010
0000
0000
0100
0010
0000
1000
0000
0001
0000
0100
0010
0000
,  // measure 5
0110
0000
1000
0001
0000
0100
0010
0000
0100
0010
0000
0001
1000
0000
0010
0000
,  // measure 6
0110
0000
0100
0001
0000
1000
0010
0000
0100
0010
0000
0100
0001
0000
1000
0010
,  // measure 7
0000
0010
0100
0000
0001
0000
0100
0010
0000
1000
0010
0000
0001
0000
0100
0010
,  // measure 8
0000
1000
0000
0010
0100
0000
0010
0100
0001
0000
1000
0000
0010
0000
0010
0100
,  // measure 9
0001
0000
1000
0010
0000
0100
0010
0100
0001
0000
1000
0010
0000
0100
0001
0000
,  // measure 10
0001
1000
0000
0010
0100
0010
0000
0101
0000
1000
0000
0010
0000
0100
0010
0100
,  // measure 11
0001
0000
1000
0010
0000
0100
0001
0100
0000
0010
1000
0000
0010
0101
0000
0100
,  // measure 12
0010
0000
1000
0001
0000
0100
0010
0000
0100
0001
0000
1000
0010
0000
0100
0001
,  // measure 13
0000
0110
1000
0001
0000
0100
0010
0000
0100
0000
0010
0100
0001
0000
1000
0000
,  // measure 14
0010
0100
0001
0000
0100
0000
0010
0000
1000
0000
0010
0000
0100
0001
0000
0100
,  // measure 15
0000
0010
1000
0000
0010
0000
0100
0001
0000
0100
0000
0010
1000
0000
0010
0000
,  // measure 16
0100
0001
0000
0100
0010
0000
1001
0000
0110
0000
0101
0000
0010
0100
0001
0100
,  // measure 17
0000
1010
0000
0000
0101
0000
0000
0000
0110
0000
1010
0000
0000
1010
0000
0000
,  // measure 18
0101
0000
0101
0000
1010
0000
1001
0000
0110
0000
0000
0101
0000
0101
0000
1010
,  // measure 19
0000
1001
0100
0000
0000
0110
0110
0000
0000
1001
0000
1001
0000
0101
0000
0000
,  // measure 20
0101
0000
0101
0000
1010
0000
1010
1001
0000
0000
0101
0000
0101
0000
1010
0000
,  // measure 21
1001
0000
0000
0000
0110
0000
0110
0000
0000
0101
0101
0000
1010
0000
1010
0000
,  // measure 22
0101
0000
0101
0000
1010
0000
1001
0000
0110
0000
0000
0101
0000
0101
0000
1010
,  // measure 23
0001
0000
0000
0110
0000
0110
0000
0101
0001
0000
1000
1010
0000
0110
0000
0000
,  // measure 24
0001
0100
0000
0000
1010
0000
1010
0000
2020
0000
0000
0000
3030
1010
0000
0000
,  // measure 25
0000
0101
0001
0100
0001
1000
0010
1000
0010
0110
0000
0000
0000
0110
0110
0000
,  // measure 26
0001
1000
1001
0000
0110
0000
0101
0000
0110
0000
0000
1001
0000
1001
0000
0010
,  // measure 27
0100
0101
0000
0000
0101
0000
0101
0000
1010
0000
0000
0000
0110
0100
0001
0000
,  // measure 28
1001
0001
1000
0000
0110
0000
0101
0001
0100
0002
0000
0000
0000
0010
0003
0000
,  // measure 29
0000
0110
0010
0100
1000
0100
0010
0010
0000
0110
0000
0200
0000
0000
0000
0310
,  // measure 30
0010
0000
1010
0000
0010
1000
0010
0000
0100
0101
0000
0110
0000
1001
0000
0110
,  // measure 31
0000
0101
0000
0010
0000
1001
0000
0010
0100
0001
0000
0001
0001
0000
0001
0000
,  // measure 32
0001
0000
0110
0000
0110
0000
0000
1001
1001
0000
0000
0000
0000
0110
0000
0101
,  // measure 33
0000
1010
0001
1000
0010
0100
0101
0000
0000
0000
1001
0000
1001
0000
0110
0000
,  // measure 34
0000
0101
1001
0000
0000
0000
0000
0110
0001
0100
0101
0000
0000
0000
0110
0000
,  // measure 35
1010
0000
1001
0000
0110
0000
0000
0000
0101
0001
0100
0000
0000
1010
0000
0000
,  // measure 36
1000
0010
1001
0000
0101
0000
0101
0000
0000
0110
0000
1010
0000
1001
0000
0110
,  // measure 37
0000
1101
0000
1010
0000
1001
0000
0110
0101
0000
0101
0000
0000
1010
0000
0000
,  // measure 38
1001
1001
0110
0101
1001
0110
0101
0110
,  // measure 39
1001
0000
0110
0000
0001
1100
1001
0000
0110
0000
0101
0000
1001
0000
0001
0100
,  // measure 40
0000
0101
0000
0101
0000
0000
0000
1110
0000
0110
0000
0000
0000
0000
0110
0000
,  // measure 41
0110
0000
0101
0001
0110
0000
0000
0110
0000
0110
0000
0000
1110
0001
0100
0000
,  // measure 42
0000
0111
0000
0111
0000
0000
0000
1110
0000
1110
0000
0000
0110
0000
0110
0000
,  // measure 43
0110
0000
0110
0001
0010
1000
0000
0000
0110
0000
0110
0000
0000
0101
0000
0111
,  // measure 44
0000
1010
0000
1001
0000
0110
0000
0101
0000
0110
0000
1001
0000
0110
0000
1001
,  // measure 45
0000
0110
0000
1001
0010
0100
0001
0100
0010
0100
0001
1000
0010
0100
0000
1001
,  // measure 46
0000
0110
0000
0101
0000
0101
0000
0110
0000
1010
0000
1001
0000
0110
0000
0101
,  // measure 47
0000
1010
0000
0101
0000
0110
0000
1001
0000
0110
0000
1001
0000
0110
0000
0002
,  // measure 48
0000
0000
0003
0010
0000
0010
0100
0010
1000
0100
0010
0000
0100
0000
0010
0100
,  // measure 49
0000
0001
0100
0000
0010
0100
0000
0010
1000
0000
0010
0000
0100
0010
0100
0001
,  // measure 50
0000
0100
0010
0000
1000
0010
0000
0100
0001
0100
0010
0000
1000
0000
0001
0100
,  // measure 51
0000
0010
0100
0000
0010
0100
0000
0001
0000
1000
0001
0000
0100
0010
0000
0110
,  // measure 52
0000
0100
0000
0010
0100
0000
0010
0000
1001
0000
0000
1000
0001
0000
0100
0000
,  // measure 53
0010
0100
0000
0010
0000
0100
0001
0000
1000
0000
0010
0100
0000
0010
0100
0000
,  // measure 54
0001
0000
1000
0010
0000
1000
0001
0000
0100
0000
0010
0000
0100
0000
0010
0000
,  // measure 55
1000
0001
0000
0100
0000
0010
0100
0000
0001
1000
0001
0001
0000
0000
0001
0000
,  // measure 56
0110
0000
0010
0100
0000
0010
1000
0010
1000
0001
0000
0101
0000
0010
0101
1010
,  // measure 57
0100
0010
0001
0010
0000
0100
1010
0101
0010
0000
0010
0001
0010
0100
0000
0010
,  // measure 58
0010
0000
0110
1000
0100
0010
0000
0010
0001
0010
0000
0100
0010
0101
0010
1000
,  // measure 59
0100
0010
0001
0010
0000
0011
0000
0100
1000
0100
0010
0000
0010
0000
0010
0000
,  // measure 60
0010
0000
0101
1010
0100
0000
0110
0010
0001
0020
0000
0000
0000
0130
1000
0110
,  // measure 61
0000
0011
0000
0100
1000
0110
0001
0010
0000
0200
0000
0000
0310
0010
0000
0011
,  // measure 62
0000
0100
1000
0110
0000
0010
0001
0010
0000
0100
0000
1000
0110
0000
0010
0001
,  // measure 63
0010
0000
0011
0100
1000
0100
0020
0000
0000
0000
0000
0000
0000
0000
0000
0000
,  // measure 64
0000
0030
0101
0000
0101
0000
0010
1000
1001
0000
0000
0000
0110
0000
0101
0000
,  // measure 65
1001
0000
0110
0001
0100
1001
0000
0000
0110
0000
0000
0101
0101
0000
0000
1010
,  // measure 66
1001
0000
0101
0000
0000
0000
0110
0000
0110
0000
1001
0000
0010
1100
1001
0000
,  // measure 67
1000
0010
0101
0000
0101
0000
0000
0000
0101
0000
0101
0000
0000
1010
0000
0000
,  // measure 68
1010
0000
0101
0000
0101
0000
1010
0000
0000
1101
0000
1001
0000
0110
0000
0101
,  // measure 69
0000
1001
0000
0110
0000
0101
1001
0000
0000
1001
0000
0110
0001
0100
0000
1001
,  // measure 70
0000
0000
0000
0101
0000
0101
0000
1010
1001
0000
0101
0000
0000
0000
0110
0000
,  // measure 71
1110
1001
0000
0000
1001
0000
0110
0101
0000
0000
0000
0110
0110
0000
0101
0000
,  // measure 72
0000
0101
0000
0010
0000
0000
1001
0000
1001
0000
0000
1110
0000
0110
0000
0101
,  // measure 73
0000
1101
0000
0110
0000
0110
0000
0000
1101
0000
1001
0000
0110
0000
1001
0000
,  // measure 74
0000
1001
0000
0110
0101
0000
0000
1001
0000
1010
0000
0000
0101
0000
0101
0000
,  // measure 75
1101
0000
0000
1010
0000
1101
0000
0000
0110
0000
0101
0000
1001
0000
1001
0000
,  // measure 76
0000
0110
0000
0101
0000
1001
0000
1001
0000
0000
0110
0000
0101
0000
1001
0000
,  // measure 77
0110
0000
1001
0000
0110
0001
1000
0010
0100
0101
0000
1001
0000
0000
0110
0000
,  // measure 78
0101
0010
0000
1001
0001
1000
0001
1010
0000
0110
0000
0110
0000
0000
0001
1100
,  // measure 79
0000
0101
0000
1110
0000
0101
0000
0111
0000
0111
0000
1110
0000
1110
0000
0110
,  // measure 80
0000
0000
0010
0000
0100
0010
0000
1000
0010
0100
0000
0010
0100
0001
0000
0000
,  // measure 81
1000
0001
0000
0000
0110
0000
0010
0100
0010
0000
1000
0001
0100
0010
0000
0100
,  // measure 82
0010
0000
1001
0000
0000
0110
0000
0100
0010
0000
0010
0100
0001
0000
1000
0110
,  // measure 83
0000
0010
0100
0000
0001
0100
0010
0000
1000
0010
0100
0010
0100
0001
0000
1000
,  // measure 84
0010
0000
0110
0000
0100
0001
0000
1000
0010
0010
0000
0100
0001
0000
0100
0010
,  // measure 85
1000
0010
0100
0001
0000
0100
0010
0100
0010
0000
1001
0000
0100
0010
0100
0010
,  // measure 86
0000
1001
0000
0100
0010
0000
0110
0000
1000
0001
0000
0110
0000
0100
0010
0100
,  // measure 87
0001
0000
0100
0010
0000
1010
0000
0110
0010
0000
0010
0100
0010
0100
0010
0000
,  // measure 88
0110
0000
0010
0000
1000
0002
0000
0000
0000
0000
0000
0000
0000
0000
0000
0000
,  // measure 89
0000
0000
0000
0000
,  // measure 90
0000
0000
0000
0000
,  // measure 91
0000
0000
0000
0003
;
